张毅《一听钟情II》小提琴声线如泣如诉,扣人心弦【百度云/WAV】

音色自然,香气直沁心脾.
音质甜美,忧伤动人的旋律,炫技的演出,小提琴声线如泣如诉,扣人心弦,令人满怀舒畅,心神愉悦。
专辑名称:一听钟情II
演唱歌手:张毅
出版公司:九州音像
发行公司:妙音唱片
发行时间:2007年04月02日
I S B N:978-7-88088-498-2
专辑简介:
由小提琴一级演奏家张毅倾情演绎,他手中小提琴琴音之美真是会令人满怀舒畅,心神愉悦、专辑里的大部分歌曲都是永恒的电影金曲,也收录了一些少数民族舞曲。曲子改变和配器出色,配器与独奏乐器衔接无缝,给小提琴的演奏提供充分发挥的空间。

歌曲:
1 辛德勒名单
2 教父主题曲
3 下雨的时候
4 天鹅之舞
5 天空之城
6 新娘嫁人新郎不是我
7 阳光照耀着塔什库尔干
8 渔舟唱晚
9 荷花颂
10 葬心
11 冬恋
12 可爱的一朵玫瑰花
13 欢颜

张毅 / 一听钟情II

使用驱动器 :TEAC CD-W540E Adapter: 1 ID: 1

读取模式 : 可靠Secure
使用精确流 : 是
清空音频缓存 : 是
使用 C2 指示器 : 否

读取偏移校正: : 686
读取 Lead-In 和 Lead-Out : 否
用静音填充抓取中丢失偏移的采样 : 是
去除首尾静音块 : 否
在CRC 计算中使用了空样本 : 是
已用接口 : Win NT 及 2000 本地 Win32 接口

所用输出模式: : 内部 WAV 函数
样本格式 : 44.100 Hz; 16 Bit; 立体声

已抓取 CD 的 TOC

音轨 | 起始 | 长度 | 起始扇区 | 结束扇区
——————————————–
1 | 0:00.00 | 4:08.09 | 0 | 18608
2 | 4:08.09 | 3:07.63 | 18609 | 32696
3 | 7:15.72 | 4:32.65 | 32697 | 53161
4 | 11:48.62 | 2:07.42 | 53162 | 62728
5 | 13:56.29 | 3:33.59 | 62729 | 78762
6 | 17:30.13 | 7:15.66 | 78763 | 111453
7 | 24:46.04 | 7:02.25 | 111454 | 143128
8 | 31:48.29 | 6:17.34 | 143129 | 171437
9 | 38:05.63 | 4:08.52 | 171438 | 190089
10 | 42:14.40 | 4:59.42 | 190090 | 212556
11 | 47:14.07 | 4:03.49 | 212557 | 230830
12 | 51:17.56 | 4:55.49 | 230831 | 253004
13 | 56:13.30 | 3:50.54 | 253005 | 270308

范围状态及错误

已选择范围

文件名 G:\无损音乐\自抓轨CD\一听钟情II\张毅 – 一听钟情II.wav

峰值电平 99.9 %
抓取速度 5.4 X
范围质量 100.0 %
复制 CRC 48A98398
复制成功

没有错误发生

AccurateRip 摘要

音轨 1 精确地校准抓取 2) [8ABCD556] (AR v2)
音轨 2 精确地校准抓取 2) [58F50372] (AR v2)
音轨 3 精确地校准抓取 2) [B7E8B364] (AR v2)
音轨 4 精确地校准抓取 2) [3F6A67A3] (AR v2)
音轨 5 精确地校准抓取 2) [83526571] (AR v2)
音轨 6 精确地校准抓取 2) [9E7E744F] (AR v2)
音轨 7 精确地校准抓取 1) [E420BE8D] (AR v2)
音轨 8 精确地校准抓取 1) [CBE624DD] (AR v2)
音轨 9 精确地校准抓取 1) [2D7AC3C5] (AR v2)
音轨 10 精确地校准抓取 1) [184BA1BD] (AR v2)
音轨 11 精确地校准抓取 1) [0EA9D962] (AR v2)
音轨 12 精确地校准抓取 2) [C0ADAC2C] (AR v2)
音轨 13 精确地校准抓取 2) [B6B1BB57] (AR v2)

所有音轨精确校准抓取

状态报告结尾

—- CUETools DB Plugin V2.1.6

[CTDB TOCID: NjYWRsr0Digs.cXOXgMHY6Gp820-] found
Submit result: NjYWRsr0Digs.cXOXgMHY6Gp820- has been confirmed
Track | CTDB Status
1 | (9/9) Accurately ripped
2 | (9/9) Accurately ripped
3 | (9/9) Accurately ripped
4 | (9/9) Accurately ripped
5 | (9/9) Accurately ripped
6 | (9/9) Accurately ripped
7 | (8/9) Accurately ripped
8 | (9/9) Accurately ripped
9 | (9/9) Accurately ripped
10 | (8/9) Accurately ripped
11 | (9/9) Accurately ripped
12 | (8/9) Accurately ripped
13 | (8/9) Accurately ripped

此专辑内容来自互联网分享,版权归原作者所有。本站不存任何音视频文件,不支持任何文件本地下载。资源仅供学习交流试听使用,请勿用于商业用途。试听后请立即删除,否则后果自负!
HIFI族 » 张毅《一听钟情II》小提琴声线如泣如诉,扣人心弦【百度云/WAV】

发表评论

加群获取更多优质资源!

获取免费资源 我要入群交流